Loading...
Loading...
Loading...

Ice Age Collision Course (2016) x 1600 (2160p) HDR 5 1 x265 10bit Phun Psyz

Seeders: 4
Leechers: 1
Completed: 126

Age: 1 week    Visits: 30    Category: Movies    Size: 2.9 GB

Posted by: PhunPsyz    Comments: Read Comments

Info Hash: 83FB75B0FE40132A10E80D1B1A1601A40213B7F2



Torrent Description



www.imdb.com/title/tt3416828/

Manny, Diego, and Sid join up with Buck to fend off a meteor strike that would destroy the world.

Source: FGT 4K Remux







Format : Matroska
Format version : Version 4 / Version 2
File size : 2.93 GiB
Duration : 1 h 34 min
Overall bit rate : 4 442 kb/s

Video
ID : 1
Format : HEVC
Format/Info : High Efficiency Video Coding
Format profile : Main [email protected]@High
Codec ID : V_MPEGH/ISO/HEVC
Duration : 1 h 34 min
Bit rate : 4 034 kb/s
Width : 3 840 pixels
Height : 1 600 pixels
Display aspect ratio : 2.40:1
Frame rate mode : Constant
Frame rate : 23.976 (24000/1001) FPS
Color space : YUV
Chroma subsampling : 4:2:0
Bit depth : 10 bits
Bits/(Pixel*Frame) : 0.027
Stream size : 2.66 GiB (91%)
Writing library : x265 2.6:[Windows][GCC 7.1.0][64 bit] 10bit

Audio
ID : 2
Format : AC-3
Format/Info : Audio Coding 3
Commercial name : Dolby Digital
Codec ID : A_AC3
Duration : 1 h 34 min
Bit rate mode : Constant
Bit rate : 320 kb/s
Channel(s) : 6 channels
Channel layout : L R C LFE Ls Rs
Sampling rate : 48.0 kHz
Frame rate : 31.250 FPS (1536 SPF)
Bit depth : 16 bits
Compression mode : Lossy
Stream size : 216 MiB (7%)
Title : Surround
Language : English

Text
Language : English
Language : Japanese
Language : Japanese
Language : Spanish
Language : French
Language : French
Language : Spanish
Language : Danish
Language : Dutch
Language : Finnish
Language : German
Language : Italian
Language : Norwegian
Language : Swedish
Language : Chinese
Language : Chinese
Default : No
Forced : No



Recently Added Torrents in Movies

Trackers List

tracker name
udp://tracker.opentrackr.org:1337/announce
udp://tracker.leechers-paradise.org:6969/announce
udp://tracker.pirateparty.gr:6969/announce
udp://tracker.coppersurfer.tk:6969/announce
udp://tracker.mg64.net:2710/announce
udp://tracker.zer0day.to:1337/announce

Sharing Widget


Download torrent
2.9 GB
Seeders: 4
Leechers: 1
Ice Age Collision Course (2016) x 1600 (2160p) HDR 5 1 x265 10bit Phun Psyz