Loading...
Loading...
Loading...

Laila Majnu 2018 Hindi 720p HDRip x264 AAC { TaRa } mkv

Seeders: 13
Leechers: 4
Completed: 571

Age: 4 days    Visits: 32    Category: Movies    Size: 1.3 GB

Posted by: SkTara    Comments: Read Comments

Info Hash: E2053A49BBD829D695B79B9B8FFAB3FAC54DE01D



Torrent Description




Laila Majnu 2018 Hindi 720p HDRip x264 AAC { TaRa }.mkv


===================================================================
General
Complete name : Laila Majnu 2018 Hindi 720p HDRip x264 AAC { TaRa }.mkv
Format : Matroska
Format version : Version 4
File size : 1.29 GiB
Duration : 2 h 12 min
Overall bit rate : 1 393 kb/s
===================================================================
Video
ID : 1
Format : AVC
Format/Info : Advanced Video Codec
Format profile : [email protected]
Format settings : CABAC / 4 Ref Frames
Format settings, CABAC : Yes
Format settings, ReFrames : 4 frames
Codec ID : V_MPEG4/ISO/AVC
Duration : 2 h 12 min
Bit rate : 1 266 kb/s
Width : 1 280 pixels
Height : 544 pixels
Display aspect ratio : 2.35:1
Frame rate mode : Constant
Frame rate : 25.000 FPS
Color space : YUV
Chroma subsampling : 4:2:0
Bit depth : 8 bits
Scan type : Progressive
Bits/(Pixel*Frame) : 0.073
Stream size : 1.17 GiB (91%)
Title : .....::::: TaRa :::::.....
Language : Hindi
Default : Yes
Forced : No
===================================================================
Audi=
ID : 2
Format : AAC LC
Format/Info : Advanced Audio Codec Low Complexity
Codec ID : A_AAC-2
Duration : 2 h 12 min
Bit rate : 125 kb/s
Channel(s) : 2 channels
Channel layout : L R
Sampling rate : 48.0 kHz
Frame rate : 46.875 FPS (1024 SPF)
Compression mode : Lossy
Delay relative to video : -21 ms
Stream size : 118 MiB (9%)
Title : .....::::: TaRa :::::.....
Language : Hindi
Default : Yes
Forced : No
===================================================================









































Recently Added Torrents in Movies

Trackers List

tracker name
udp://tracker.opentrackr.org:1337/announce
udp://tracker.leechers-paradise.org:6969/announce
udp://tracker.pirateparty.gr:6969/announce
udp://tracker.coppersurfer.tk:6969/announce
udp://tracker.mg64.net:2710/announce
udp://tracker.zer0day.to:1337/announce

Sharing Widget


Download torrent
1.3 GB
Seeders: 13
Leechers: 4
Laila Majnu 2018 Hindi 720p HDRip x264 AAC { TaRa } mkv