Loading...
Loading...
Loading...

Laila Majnu (2018) Hindi 720p WEB-DL DD5 1 H264 AC3 1 3GB -HD

Seeders: 1
Leechers: 1
Completed: 17

Age: 1 week    Visits: 70    Category: Movies    Size: 1.3 GB

Posted by: 1337xHD    Comments: Read Comments

Info Hash: 3A7215FD94E501792A303070B2B77E6D916A2948



Torrent Description



http://hdfilmboss.mobi/
http://1337xhd.com/



Official Website http://hdfilmboss.mobi/
Official Website http://1337xhd.com/



General
Complete name                            : P:\1337xHD.Com-Laila Majnu (2018) indi 720p WEB-DL DD5.1 H264 AC3 1.2GB ESub.mp4
Format                                   : MPEG-4
Format profile                           : Base Media
Codec ID                                 : isom (isom/iso2/avc1/mp41)
File size                                : 1.29 GiB
Duration                                 : 2 h 12 min
Overall bit rate                         : 1 393 kb/s
Movie name                               : WWW.HDFilmBoss.Mobi
Writing application                      : Lavf58.12.100

Video
ID                                       : 1
Format                                   : AVC
Format/Info                              : Advanced Video Codec
Format profile                           : [email protected]
Format settings                          : CABAC / 4 Ref Frames
Format settings, CABAC                   : Yes
Format settings, RefFrames               : 4 frames
Codec ID                                 : avc1
Codec ID/Info                            : Advanced Video Coding
Duration                                 : 2 h 12 min
Bit rate                                 : 1 260 kb/s
Width                                    : 1 274 pixels
Height                                   : 720 pixels
Display aspect ratio                     : 16:9
Frame rate mode                          : Constant
Frame rate                               : 25.000 FPS
Color space                              : YUV
Chroma subsampling                       : 4:2:0
Bit depth                                : 8 bits
Scan type                                : Progressive
Bits/(Pixel*Frame)                       : 0.055
Stream size                              : 1.16 GiB (90%)
Title                                    : WWW.1337xHD.Com
Writing library                          : x264 core 148 r2643 5c65704
Codec configuration box                  : avcC

Audio
ID                                       : 2
Format                                   : AAC LC
Format/Info                              : Advanced Audio Codec Low Complexity
Codec ID                                 : mp4a-40-2
Duration                                 : 2 h 12 min
Bit rate mode                            : Constant
Bit rate                                 : 128 kb/s
Channel(s)                               : 1 channel
Channel layout                           : C
Sampling rate                            : 44.1 kHz
Frame rate                               : 43.066 FPS (1024 SPF)
Compression mode                         : Lossy
Stream size                              : 121 MiB (9%)
Title                                    : WWW.1337xHD.Com
Default                                  : Yes
Alternate group                          : 1














Recently Added Torrents in Movies

Trackers List

tracker name
udp://tracker.opentrackr.org:1337/announce
udp://tracker.leechers-paradise.org:6969/announce
udp://tracker.pirateparty.gr:6969/announce
udp://tracker.coppersurfer.tk:6969/announce
udp://tracker.mg64.net:2710/announce
udp://tracker.zer0day.to:1337/announce

Sharing Widget


Download torrent
1.3 GB
Seeders: 1
Leechers: 1
Laila Majnu (2018) Hindi 720p WEB-DL DD5 1 H264 AC3 1 3GB -HD