Loading...
Loading...
Loading...

Thugs Of Hindostan 2018 Hindi Movies PDVDRip x264 Clean Audio AAC New Source with Sample ☻rDX☻

Seeders: 90
Leechers: 21
Completed: 4,270

Age: 1 week    Visits: 55    Category: Movies    Size: 724.8 MB

Posted by: nehalpuja    Comments: Read Comments

Info Hash: 2AB274DF5E994719241547829D559E0A73B36236



Torrent Description



Thugs Of Hindostan 2018 Hindi Movies PDVDRip x264 Clean Audio AAC New Source with Sample ☻rDX☻
===============================================================================================

SCREEN SHOTS:



or

http://iphonehosting.eu/2018/11/a/offline/1.html

File size : 717 MiB
Duration : 2 h 34 min
Overall bit rate : 647 kb/s
Movie name : Thugs Of Hindostan 2018 Hindi Movies PDVDRip x264 Clean Audio AAC New Source ☻rDX☻

Video
ID : 2
Format : AVC
Format/Info : Advanced Video Codec
Format profile : [email protected]
Format settings, CABAC : Yes
Format settings, ReFrames : 4 frames
Codec ID : V_MPEG4/ISO/AVC
Duration : 2 h 34 min
Bit rate : 548 kb/s
Width : 720 pixels
Height : 288 pixels
Display aspect ratio : 2.500
Frame rate mode : Constant
Frame rate : 25.000 FPS
Color space : YUV
Chroma subsampling : 4:2:0
Bit depth : 8 bits
Scan type : Progressive
Bits/(Pixel*Frame) : 0.106
Stream size : 596 MiB (83%)
Title : ☻rDX☻
Writing library : x264

Audio
ID : 1
Format : MPEG Audio
Format version : Version 2
Format profile : Layer 3
Mode : Joint stereo
Mode extension : MS Stereo
Codec ID : A_MPEG/L3
Codec ID/Hint : MP3
Duration : 2 h 34 min
Bit rate mode : Constant
Bit rate : 96.0 kb/s
Channel(s) : 2 channels
Sampling rate : 22.05 kHz
Compression mode : Lossy
Stream size : 106 MiB (15%)
Title : ☻rDX☻
Writing library : LAME3.99.5
Language : English
Default : Yes
Forced : No

http://www.imdb.com/title/tt5970844



Recently Added Torrents in Movies

Trackers List

tracker name
udp://tracker.opentrackr.org:1337/announce
udp://tracker.leechers-paradise.org:6969/announce
udp://tracker.pirateparty.gr:6969/announce
udp://tracker.coppersurfer.tk:6969/announce
udp://tracker.mg64.net:2710/announce
udp://tracker.zer0day.to:1337/announce

Sharing Widget


Download torrent
724.8 MB
Seeders: 90
Leechers: 21
Thugs Of Hindostan 2018 Hindi Movies PDVDRip x264 Clean Audio AAC New Source with Sample ☻rDX☻